终极电影网手机版

终极电影网手机版

当前位置:首页 > 电影 > 剧情片

迅雷下载

BT种子下载

但丁密码剧情介绍

◎译  名 但丁密码/地狱(台)/地狱解码(港)
◎片  名 Inferno
◎年  代 2016
◎国  家 美国/日本/土耳其/匈牙利
◎类  别 悬疑/惊悚
◎语  言 英语
◎上映日期 2016-10-28(中国大陆/美国)
◎IMDb评分 6.5/10 from 13,592 users
◎IMDb链接 http://www.imdb.com/title/tt3062096/
◎豆瓣评分 6.5/10 from 422 users
◎豆瓣链接 https://movie.douban.com/subject/24860318/
◎片  长 122分钟
◎导  演 朗·霍华德 Ron Howard
◎主  演 汤姆·汉克斯 Tom Hanks
      费莉西蒂·琼斯 Felicity Jones
      本·福斯特 Ben Foster
      奥玛·赛 Omar Sy
      伊尔凡·可汗 Irrfan Khan
      西德斯·巴比特·科努德森 Sidse Babett Knudsen
      Ana Ularu
      Wolfgang Stegemann
      Attila árpa
      Jon Donahue

◎简  介

  《但丁密码》改编自丹·布朗2013年的小说《地狱》,讲述了符号学教授罗伯特·兰登(汤姆·汉克斯 Tom Hanks 饰)在意大利一所医院中醒来,发觉自己头部受到重创且失忆,同时还受到多组人马追杀,女医生西恩娜·布鲁克斯(费莉西蒂·琼斯 Felicity Jones 饰)帮助他逃出医院,寻回记忆,在这一过程中发现隐藏在但丁、米开朗琪罗等大师作品里的一个惊天阴谋,有极端邪恶的科学家妄图利用病毒把地球变成但丁《神曲》中描绘的地狱。



http://www.imdb.com/title/tt3062096/


When Robert Langdon wakes up in an Italian hospital with amnesia, he teams up with Dr. Sienna Brooks, and together they must race across Europe against the clock to foil a deadly global plot.

Director: Ron Howard
Writers: Dan Brown (based on the novel by), David Koepp (screenplay)
Stars: Tom Hanks, Felicity Jones, Irrfan Khan
Genres: Action | Adventure | Crime | Drama | Mystery | Thriller
Country: USA | Japan | Turkey | Hungary
Language: English


::iNFORMATION::
Language: English
Source: SPA

Format : Matroska
File size : 1.44 GiB
Duration : 1 h 54 min
Overall bit rate mode : Variable
Overall bit rate : 1 803 kb/s

Video
ID : 1
Format : AVC
Format/Info : Advanced Video Codec
Format profile : High@L4.2
Format settings, CABAC : Yes
Format settings, ReFrames : 4 frames
Codec ID : V_MPEG4/ISO/AVC
Duration : 1 h 54 min
Bit rate mode : Variable
Bit rate : 1 609 kb/s
Maximum bit rate : 62.5 Mb/s
Width : 720 pixels
Height : 396 pixels
Display aspect ratio : 16:9
Frame rate mode : Constant
Frame rate : 29.970 (30000/1001) FPS
Color space : YUV
Chroma subsampling : 4:2:0
Bit depth : 8 bits
Scan type : Progressive
Bits/(Pixel*Frame) : 0.188
Stream size : 1.29 GiB (89%)
Default : Yes
Forced : No
Color range : Full
Color primaries : BT.709
Transfer characteristics : BT.709
Matrix coefficients : BT.709

Audio
ID : 2
Format : MPEG Audio
Format version : Version 1
Format profile : Layer 3
Codec ID : A_MPEG/L3
Codec ID/Hint : MP3
Duration : 1 h 54 min
Bit rate mode : Constant
Bit rate : 192 kb/s
Channel(s) : 2 channels
Sampling rate : 44.1 kHz
Frame rate : 38.281 FPS (1152 spf)
Compression mode : Lossy
Delay relative to video : 5 ms
Stream size : 157 MiB (11%)
Writing library : LAME3.99.5
Default : Yes
Forced : No

猜你喜欢